Search This Site

Tuesday, October 15, 2013

Fukrey (2013) 720p Blu-Ray [x264] Hindi Movie Download


Source : DVD
Format : Matroska (.Mkv)
Format Version : Version 4 / Version 2
File size : 986 MB
Duration : 2h 20mn
Language : Hindi
Default : Yes
Forced : No

Video
ID : 1
Format : AVC
Format/Info : Advanced Video Codec
Format profile : High@L3.1
Format settings, CABAC : Yes
Format settings, ReFrames : 4 frames
Codec ID : V_MPEG4/ISO/AVC
Duration : 2h 20mn
Bit rate : 849 Kbps
Width : 1 280 pixels
Height : 536 pixels
Display aspect ratio : 2.40:1
Frame rate mode : Constant
Frame rate : 24.000 fps
Color space : YUV
Chroma subsampling : 4:2:0
Bit depth : 8 bits
Scan type : Progressive
Bits/(Pixel*Frame) : 0.052
Stream size : 838 MiB (85%)
Title : Mafiaking

Audio
ID : 2
Format : AC-3
Format/Info : Audio Coding 3
Mode extension : CM (complete main)
Format settings, Endianness : Big
Codec ID : A_AC3
Duration : 2h 20mn
Bit rate mode : Constant
Bit rate : 128 Kbps
Channel(s) : 6 channels
Channel positions : Front: L C R, Side: L R, LFE
Sampling rate : 48.0 KHz
Bit depth : 16 bits
Compression mode : Lossy
Stream size : 129 MiB (13%)
Title : Mafiaking
Language : Hindi
Default : Yes
Forced : No

Download

Screenshots:- 
 
Fukrey (2013) S2 s Fukrey (2013) PC Games
Fukrey (2013) S4 s Fukrey (2013) Fukrey (2013) S3 s Fukrey (2013)

Trailer:-
        

About:-

College. Three of the most important years of your life. Three years of studies (at times) and sheer indulgence. Indulgence in all the little pleasures that a carefree life has to offer. But it isnt always about ragging, fuchcha parties, college fests, raves and churning out ways to whack some extra pocket money from your parents. Its sometimes hard, ugly and complicated. More so, when you really need to get admission in the coolest college in town and you know you dont deserve it. And to top that, you get yourself involved in the most bizarre situations that could crack you into pieces before you could crack it.

FUKREY is one such crazy story of four restless and hapless souls, running after their individual desires, brought together by one dream, which turns their not so simple life upside down. From breaking school walls, to cross dressing dancers at the Ram Lila; from a Jugaad Baaz college watchman to leaking examination papers; from a female pimp, who runs her drug cartel through Nigerian henchmen to visionary dreams.

Can the four Fukrey, the four nobodies, twist their fate and dreams into reality or will they forever be lost in the obscurity that they come from?
 

0 comments:

Post a Comment