Search This Site

Monday, January 20, 2014

Elysium (2013) 1080p Dual Audio [English+Hindi] Movie Free Download


[TITLE]:........................ Elysium (2013)
[DIRECTOR]:..................... Neill Blomkamp
[RELEASE DATE]:................. 9 August 2013 (USA)
[GENRE]:........................  Action | Drama | Sci-Fi
[HDTV SUPPORT]:................. Yes
[NO OF FILES]:.................. 1
[VIDEO]:........................ AVC - x264
[AUDIO]:........................ AC-3 - 2CH
[FILE SIZE]:.................... 1.1 GB
[RESOLUTION]:................... 1280 x 536
[FRAME RATE]:................... 25.000 fps
[LANGUAGE]:..................... English/Hindi
[SUBTITLES]:.................... English
[RUNTIME]:...................... 01:45:17
[SOURCE]:....................... 1080p BluRay
[IMDB Link]:..................... http://www.imdb.com/title/tt1535108/

Download

Screenshots:-

Elysium (2013) S2 s Elysium (2013) Movies
Elysium (2013) S4 s Elysium (2013) Elysium (2013) S3 s Elysium (2013)

Audio

Audio #1
ID : 2
Format : AC-3
Format/Info : Audio Coding 3
Mode extension : CM (complete main)
Codec ID : A_AC3
Duration : 1h 49mn
Bit rate mode : Constant
Bit rate : 224 Kbps
Channel(s) : 2 channels
Channel positions : Front: L R
Sampling rate : 48.0 KHz
Bit depth : 16 bits
Compression mode : Lossy
Stream size : 176 MiB (17%)
Language : Hindi
Default : Yes
Forced : No

Audio #2
ID : 3
Format : AC-3
Format/Info : Audio Coding 3
Mode extension : CM (complete main)
Format settings, Endianness : Big
Codec ID : A_AC3
Duration : 1h 49mn
Bit rate mode : Constant
Bit rate : 160 Kbps
Channel(s) : 6 channels
Channel positions : Front: L C R, Side: L R, LFE
Sampling rate : 48.0 KHz
Bit depth : 16 bits
Compression mode : Lossy
Stream size : 125 MiB (12%)
Language : English
Default : No
Forced : No

Trailer:-
        

About:-

In the year 2154, two classes of people exist: the very wealthy, who live on a pristine man-made space station called Elysium, and the rest, who live on an overpopulated, ruined Earth. Secretary Delacourt, a government official, will stop at nothing to enforce anti-immigration laws and preserve the luxurious lifestyle of the citizens of Elysium. That doesn't stop the people of Earth from trying to get in by any means they can. When unlucky Max is backed into a corner, he agrees to take on a daunting mission that, if successful, will not only save his life but could bring equality to these polarized worlds.

0 comments:

Post a Comment